[蓝光REMUX]2009年建国60周年大阅兵/盛世大阅兵[1080P/18.78G/TS/百度]

这时帖子是极限的的。 expresser 于 2018-9-3 14:19 剪辑

集会的公共场所资源不再无效。。共享蓝光ReMUX版本到百度SkyDrand。诉讼珍藏。
2009年立国60周年纪念的大阅兵/盛世大阅兵

[2009][中国1971][新闻短片][2009年立国60周年纪念的大阅兵/盛世大阅兵][REMUX][][TS]
高清抄写网 [2009][中国1971][新闻短片]《2009年立国60周年纪念的大阅兵/盛世大阅兵》[REMUX][][TS]  高清新闻短片 143851aojjbdaso4doczvq_dzcms_sy

抄写基本消息
规模:
接合: 1080P
影像的: MKV
豆评分
导演: 颜品 / 平地 / 范宇 / 刘治湾
电影剧本作家: 颜品
主演: 吴军泉 / 李一圈博
典型: 新闻短片
生产国/地域 中国1971大陆
交谈: 华语官僚的
流动日期: 2010-01-29(中国1971大陆)
片长: 71分钟
别名: Chinese Military Celebration 2009
抄写: China”s 第六十 Anniversary Chinese Military Celebration 2009 BluRay REMUX 1080p AVC LPCM TrueHD
◎剧情简介
由解放军八一抄写制片厂拍摄的新闻短片《盛世大阅兵》是眼前超绝细分采取新闻短片经用的16=millimicron胶片拍摄国庆节60周年纪念的阅兵的纪录抄写。全片先后采用了眼前国内最上进的主流视像管40余台、35席、12辆汽车以誓言约束、4起重车、10高平台、共92名地名索引在长安街与鼻孔坚定地的各自的席位全景式地记载了中华大众共和国立国60周年纪念的国庆节阅兵的盛况。这部抄写正是壮观。、参加影象深入的阳明阴灵尝试,全向、国防和主机现代化建设取慢着顺利地完成。,让我们的单位数听党的报幕员。、保养大众、英勇和作战用的的本质和力气。、文化教员、成教员的良好形象。

    然而电视业读物版曾经受胎阳明阴灵版本,但三灾八难的是,16:9宽银幕以前的男朋友或女朋友在内。。作为超绝的高接合蓝光发行物和发行物公司,Hua Lu出现浊塞音屡次收到来自某处取食者T的提议。通过屡次尝试,Hua Lu出现传媒终扩大八一抄写制片厂。、中国1971三环音像社在2011年一月混合出现发行了《盛世大阅兵》蓝光盘,发生恢复之路,Hua Lu出现浊塞音亦白色主旨Blu ray高丰富的公关,这亦第东西高丰富的的蓝军阅兵引起。。

    为了把这部高优点的新闻短片贡献给康苏,Hua Lu出现传媒特意与北京抄写学院接触人。,变化多的的小卡车知识拍摄的相片也不是同上,胶片五分镍币和成分混杂的裁切也被注意地恢复正常了。。终极,《盛世大阅兵》蓝光盘采取了1920×1080全高清 16:9宽屏影像的,LPCM 杜比TuteHD双体式高接合盘绕音轨的HI。

    此次《盛世大阅兵》蓝光盘的成上市亦华录出现传媒与八一抄写制片厂吃水共同工作的开端,单方方案在2011构造东西高接合的白色陆龙卷。,《大自由降落式》、《太行山上》、巍峨的的昆仑、中国1971革命歌曲和肥沃的别的经典抄写,将无机原版的过高丰富的蓝光CARRI闪烁。Hua Lu出现传媒也期望借此机会开盘中国1971,在创立本人的出现容貌的同时,,使行动起来业界对经典抄写备款以支付的关怀,鞭策中国1971高清音像集会开展。
————————-





编码消息:
General
ID                             : 1 (0x1)
Complete name                  : D:快速地拨号下载\中国1971 第六十 Anniversary Chinese Military Celebration 2009 BluRay REMUX 1080p AVC LPCM TrueHD DD-CHD.ts
Format                         : MPEG-TS
File size                      : 18.8 GiB
Duration                       : 1 h 11 min
Overall bit rate mode          : Variable
Overall bit rate               : 37.8 Mb/s
Maximum Overall bit rate       : 35.5 Mb/s

Video
ID                             : 4113 (0x1011)
Menu ID                        : 1 (0x1)
Format                         : AVC
Format/Info                    : Advanced Video Codec
Format profile                 : High@L4.1
Format settings                : CABAC / 4 Ref Frames
Format settings, CABAC         : Yes
Format settings, ReFrames      : 4 frames
Codec ID                       : 27
Duration                       : 1 h 11 min
Bit rate mode                  : Variable
Bit rate                       : 30.0 Mb/s
Maximum bit rate               : 35.0 Mb/s
Width                          : 1 920 pixels
Height                         : 1 080 pixels
Display aspect ratio           : 16:9
Frame rate                     : (24000/1001) FPS
Standard                       : NTSC
Color space                    : YUV
Chroma subsampling             : 4:2:0
Bit depth                      : 8 bits
Scan type                      : Progressive
Bits/(Pixel*Frame)             : 0.604
Stream size                    : 14.9 GiB (79%)
Color range                    : Limited
Color primaries                : BT.709
Transfer characteristics       : BT.709
Matrix coefficients            : BT.709

Audio #1
ID                             : 4352 (0x1100)
Menu ID                        : 1 (0x1)
Format                         : PCM
Format settings                : Big / Signed
Muxing mode                    : Blu-ray
Codec ID                       : 128
Duration                       : 1 h 11 min
Bit rate mode                  : Constant
Bit rate                       : 4 608 kb/s
通行(S)                    : 6 channels
Channel positions              : Front: L C R, Side: L R, LFE
Sampling rate                  : 48.0 kHz
Bit depth                      : 16 bits
Stream size                    : 2.29 GiB (12%)
Language                       : Chinese

Audio #2
ID                             : 4353 (0x1101)
Menu ID                        : 1 (0x1)
Format                         : TrueHD / AC-3
Muxing mode                    : Stream extension
Codec ID                       : 131
Duration                       : 1 h 11 min
Bit rate mode                  : Variable / Constant
Bit rate                       : 640 kb/s
Maximum bit rate               : 2 562 kb/s
通行(S)                    : 6 channels
Channel positions              : Front: L C R, Side: L R, LFE
Sampling rate                  : 48.0 kHz
Frame rate                     : 31.250 FPS (1536 SPF)
Bit depth                      : 16 bits
Stream size                    : 325 MiB (2%)
Language                       : Chinese
Service kind                   : Complete Main

Audio #3
ID                             : 4354 (0x1102)
Menu ID                        : 1 (0x1)
Format                         : AC-3
Format/Info                    : Audio Coding 3
Codec ID                       : 129
Duration                       : 1 h 11 min
Bit rate mode                  : Constant
Bit rate                       : 640 kb/s
通行(S)                    : 6 channels
Channel positions              : Front: L C R, Side: L R, LFE
Sampling rate                  : 48.0 kHz
Frame rate                     : 31.250 FPS (1536 SPF)
Bit depth                      : 16 bits
Compression mode               : Lossy
Stream size                    : 325 MiB (2%)
Language                       : Chinese
Service kind                   : Complete Main

下载地址:

发表评论

电子邮件地址不会被公开。 必填项已用*标注